HackProgramas para descargar todo para tu Pc, mac, telefono, celular, liberacion,

Navegación
 Portal
 Índice
 Miembros
 Perfil
 FAQ
 Buscar
Mejores posteadores
iDavo87
 
SnowTool
 

¿Quién está en línea?
En total hay 1 usuario en línea: 0 Registrados, 0 Ocultos y 1 Invitado

Ninguno

[ Ver toda la lista ]


La mayor cantidad de usuarios en línea fue 20 el Jue Nov 28, 2013 12:31 am.

No estás conectado. Conéctate o registrate

Descarga "Sherlock Holmes" BDRip HD 720p (2010) Gratis Peliculas [Links 200MB]

Ver el tema anterior Ver el tema siguiente Ir abajo  Mensaje [Página 1 de 1.]

iDavo87


Admin
Sherlock Holmes BDRip HD 720p Inglés Subtitulado Español


Basada en el comic de Lionel Wigram, inspirado en los cuentos clásicos de Sir Arthur Conan Doyle.
Sherlock Holmes (Robert Downey Jr.) y su incondicional amigo Watson (Jude Law) se enfrentan a un nuevo desafío. Demostrando unas habilidades para luchar tan letales como su legendario intelecto, Holmes librará una gran batalla para derrotar a su nuevo enemigo Blackwood (Mark Strong) y abortar un plan demoníaco que podría destruir el país.


Título: Sherlock Holmes
Título Original: Sherlock Holmes
Género: Thriller Policiaco
Nacionalidad: USA
Año: 2009
Director: Guy Ritchie
Guión: Guy Ritchie, Tony Peckham
Reparto: Robert Downey Jr., Jude Law, Rachel McAdams, Mark Strong, Kelly Reilly, Eddie Marsan
Fecha de Estreno: Viernes, 15 de Enero de 2010


+
YouTube Video



ERROR: If you can see this, then YouTube is down or you don't have Flash installed.




Código:

General
Complete name : C:\Documents and Settings\Administrador\Mis documentos\Peliculas\Sherlock Holmes [Ing-Sub]\Sher.Hlms.(2009).m-720p.mkv
Format : Matroska
File size : 2.60 GiB
Duration : 2h 8mn
Overall bit rate : 2 895 Kbps
Encoded date : UTC 2010-03-12 07:34:33
Writing application : mkvmerge v3.1.0 ('Happy up here') built on Jan 19 2010 12:09:24
Writing library : libebml v0.7.9 + libmatroska v0.8.1

Video
ID : 1
Format : AVC
Format/Info : Advanced Video Codec
Format profile : High@L4.1
Format settings, CABAC : Yes
Format settings, ReFrames : 4 frames
Muxing mode : Container profile=Unknown@4.1
Codec ID : V_MPEG4/ISO/AVC
Duration : 2h 8mn
Bit rate : 2 453 Kbps
Nominal bit rate : 2 510 Kbps
Width : 1 280 pixels
Height : 720 pixels
Display aspect ratio : 16:9
Frame rate : 23.976 fps
Resolution : 8 bits
Colorimetry : 4:2:0
Scan type : Progressive
Bits/(Pixel*Frame) : 0.111
Stream size : 2.20 GiB (85%)
Writing library : x264 core 80 r1376M 3feaec2
Encoding settings : cabac=1 / ref=4 / deblock=1:-5:-5 / analyse=0x3:0x113 / me=umh / subme=9 / psy=1 / psy_rd=1.0:0.0 / mixed_ref=1 / me_range=16 / chroma_me=1 / trellis=2 / 8x8dct=1 / cqm=2 / deadzone=21,11 / fast_pskip=1 / chroma_qp_offset=-2 / threads=3 / sliced_threads=0 / nr=0 / decimate=0 / mbaff=0 / constrained_intra=0 / bframes=3 / b_pyramid=0 / b_adapt=2 / b_bias=0 / direct=3 / wpredb=1 / wpredp=2 / keyint=250 / keyint_min=25 / scenecut=40 / rc_lookahead=40 / rc=2pass / mbtree=1 / bitrate=2510 / ratetol=1.0 / qcomp=0.60 / qpmin=10 / qpmax=51 / qpstep=4 / cplxblur=20.0 / qblur=0.5 / ip_ratio=1.40 / aq=1:1.00

Audio
ID : 2
Format : AC-3
Format/Info : Audio Coding 3
Format_Settings_ModeExtension : CM (complete main)
Codec ID : A_AC3
Duration : 2h 8mn
Bit rate mode : Constant
Bit rate : 384 Kbps
Channel(s) : 6 channels
Channel positions : Front: L C R, Side: L R, LFE
Sampling rate : 48.0 KHz
Stream size : 353 MiB (13%)

Text
ID : 3
Format : UTF-8
Codec ID : S_TEXT/UTF8
Codec ID/Info : UTF-8 Plain Text
Language : English



This image has been resized. Click this bar to view the full image. The original image is sized 1280x720.


This image has been resized. Click this bar to view the full image. The original image is sized 1280x720.


This image has been resized. Click this bar to view the full image. The original image is sized 1280x720.


This image has been resized. Click this bar to view the full image. The original image is sized 1280x720.


This image has been resized. Click this bar to view the full image. The original image is sized 1280x720.



Ahora puedes ver el Contenido OcultoSherlock Holmes HD 720p | Tamaño: 2.20GB | Links: 200MB | Host: Rapidshare

http://rapidshare.com/files/38008432...aCk.part01.rar
http://rapidshare.com/files/38008496...aCk.part02.rar
http://rapidshare.com/files/38008685...aCk.part03.rar
http://rapidshare.com/files/38008865...aCk.part04.rar
http://rapidshare.com/files/38008733...aCk.part05.rar
http://rapidshare.com/files/38008807...aCk.part06.rar
http://rapidshare.com/files/38008416...aCk.part07.rar
http://rapidshare.com/files/38008898...aCk.part08.rar
http://rapidshare.com/files/38008644...aCk.part09.rar
http://rapidshare.com/files/38008558...aCk.part10.rar
http://rapidshare.com/files/38008634...aCk.part11.rar
http://rapidshare.com/files/38008611...aCk.part12.rar
http://rapidshare.com/files/38008412...aCk.part13.rar
http://rapidshare.com/files/38008229...aCk.part14.rar


Links Para Gestores

Código:

http://rapidshare.com/files/380084326/SxHms-BDRip.720p-MKV-ZAkHaCk.part01.rar
http://rapidshare.com/files/380084960/SxHms-BDRip.720p-MKV-ZAkHaCk.part02.rar
http://rapidshare.com/files/380086855/SxHms-BDRip.720p-MKV-ZAkHaCk.part03.rar
http://rapidshare.com/files/380088658/SxHms-BDRip.720p-MKV-ZAkHaCk.part04.rar
http://rapidshare.com/files/380087331/SxHms-BDRip.720p-MKV-ZAkHaCk.part05.rar
http://rapidshare.com/files/380088076/SxHms-BDRip.720p-MKV-ZAkHaCk.part06.rar
http://rapidshare.com/files/380084163/SxHms-BDRip.720p-MKV-ZAkHaCk.part07.rar
http://rapidshare.com/files/380088980/SxHms-BDRip.720p-MKV-ZAkHaCk.part08.rar
http://rapidshare.com/files/380086449/SxHms-BDRip.720p-MKV-ZAkHaCk.part09.rar
http://rapidshare.com/files/380085583/SxHms-BDRip.720p-MKV-ZAkHaCk.part10.rar
http://rapidshare.com/files/380086343/SxHms-BDRip.720p-MKV-ZAkHaCk.part11.rar
http://rapidshare.com/files/380086113/SxHms-BDRip.720p-MKV-ZAkHaCk.part12.rar
http://rapidshare.com/files/380084122/SxHms-BDRip.720p-MKV-ZAkHaCk.part13.rar
http://rapidshare.com/files/380082292/SxHms-BDRip.720p-MKV-ZAkHaCk.part14.rar

Ver perfil de usuario http://hackprogramas.yourme.net

Ver el tema anterior Ver el tema siguiente Volver arriba  Mensaje [Página 1 de 1.]

Permisos de este foro:
No puedes responder a temas en este foro.